请选择 进入手机版 | 继续访问电脑版

天天资源吧

 找回密码
 立即注册
搜索
热搜: 活动 交友 discuz

[奇幻][2017][1080P][通灵少女][国语中字][郭书瑶.蔡凡熙][6集全][MP4][3.24GB][百...

[复制链接]

Rank: 9Rank: 9Rank: 9

积分
639077
发表于2024-05-25 | 显示全部楼层 |阅读模式
[奇幻][2017][1080P][通灵少女][国语中字][郭书瑶.蔡凡熙][6集全][MP4][3.24GB][百度云]

◎译  名 通灵少女
◎片  名 通靈少女
◎年  代 2017
◎产  地 台湾/新加坡 Singapore
◎类  别 剧情/悬疑/奇幻
◎语  言 汉语普通话/闽南语
◎上映日期 2017-04-02(台湾)
◎豆瓣评分 7.6/10 from 1,955 users
◎豆瓣链接 https://movie.douban.com/subject/26842622/
◎集  数 6
◎片  长 45分钟
◎导  演 陈和榆 Ho-yu Chen
◎主  演 郭书瑶 Shu-yau Kuo
      蔡凡熙 Kent Cai
      陈慕义 Akio Chen
      郑茵声 Yinsheng Zheng
      李千娜 Gina Li
      黄仲昆 Chung-kun Huang
      谢翔雅 Xiangya Xie

◎简  介

  谢雅真(郭书瑶 饰)表面看来只是一名平凡的少女,可实际上,她拥有着一双能够洞悉阴阳两界的双眼。父母在谢雅真很小的时候就将她送入庙中修行,拜在金胜在(陈慕义 饰)门下,她的工作就是利用自己的特异功能,帮助客户们解决那些发生在他们身上的,科学无法解释的事件。
  在学校里,谢雅真尽己所能的低调行事,因此显得有些格格不入,除了她最好的朋友黄巧薇(郑茵声 饰),没有人知道谢雅真的另一重身份。一次偶然中,谢雅真邂逅了名为何允乐(蔡凡熙 饰)的转校生,趣味相投的两人很快就成为了知己,与此同时,美好的感情亦因为何允乐的存在而在谢雅真的内心里渐渐萌芽。
General
ID                             : 3 (0x3)
Format                         : MPEG-TS
File size                      : 1.42 GiB
Duration                       : 46 min 51 s
Overall bit rate mode          : Variable
Overall bit rate               : 4 337 kb/s
Video
ID                             : 5046 (0x13B6)
Menu ID                        : 181 (0xB5)
Format                         : AVC
Format/Info                    : Advanced Video Codec
Format profile                 : High@L4
Format settings, CABAC         : Yes
Format settings, ReFrames      : 4 frames
Codec ID                       : 27
Duration                       : 46 min 50 s
Bit rate                       : 3 994 kb/s
Width                          : 1 920 pixels
Height                         : 1 080 pixels
Display aspect ratio           : 16:9
Frame rate                     : 25.000 FPS
Standard                       : Component
Color space                    : YUV
Chroma subsampling             : 4:2:0
Bit depth                      : 8 bits
Scan type                      : Interlaced
Scan type, store method        : Separated fields
Scan order                     : Top Field First
Bits/(Pixel*Frame)             : 0.077
Stream size                    : 1.31 GiB (92%)
Color range                    : Limited
Color primaries                : BT.709
Transfer characteristics       : BT.709
Matrix coefficients            : BT.709
Audio
ID                             : 5047 (0x13B7)
Menu ID                        : 181 (0xB5)
Format                         : MPEG Audio
Format version                 : Version 1
Format profile                 : Layer 2
Codec ID                       : 4
Duration                       : 46 min 51 s
Bit rate mode                  : Constant
Bit rate                       : 128 kb/s
Channel(s)                     : 2 channels
Sampling rate                  : 48.0 kHz
Compression mode               : Lossy
Delay relative to video        : -1 s 516 ms
Stream size                    : 42.9 MiB (3%)

链接:>>点击进入百度云下载<<(←购买前请先验证分享链接是否有效)


提取码:


游客,如果您要查看本帖隐藏内容请回复



回复

使用道具 举报

您需要登录后才可以回帖 登录 | 立即注册

本版积分规则

QQ|小黑屋|手机版|Archiver|天天资源影视论坛-打造最专业的百度资源社区 ( 内ICP备171283111号

GMT+8, 2024-5-26 05:11 , Processed in 0.078739 second(s), 20 queries .

Powered by Discuz! X3.4

Copyright © 2001-2021, Tencent Cloud.

快速回复 返回顶部 返回列表